#TITLE:Why did i fall in love with you?;
#SUBTITLE:Initiate;
#ARTIST:DBSK;
#TITLETRANSLIT:;
#SUBTITLETRANSLIT:;
#ARTISTTRANSLIT:;
#CREDIT:;
#BANNER:wdifilwy-bn.png;
#BACKGROUND:wdifilwy-bg.png;
#LYRICSPATH:;
#CDTITLE:cdtitle.png;
#MUSIC:why did i fall in love with you.mp3;
#OFFSET:-0.020;
#SAMPLESTART:100.000;
#SAMPLELENGTH:12.000;
#SELECTABLE:YES;
#BPMS:0.000=92.000;
#STOPS:;
#BGCHANGES:;
// cache tags:
#FIRSTBEAT:0.000;
#LASTBEAT:296.000;
#SONGFILENAME:Songs/Initiate/whydidifallinlovewithyou(noclip)/why did i fall in love with you.sm;
#HASMUSIC:1;
#HASBANNER:1;
#MUSICLENGTH:196.601;
// end cache tags

//---------------dance-single - ----------------
#NOTES:
     dance-single:
     :
     Hard:
     8:
     0.818,0.809,1.000,0.142,0.649,751.000,342.000,28.000,0.000,44.000:
0010
1000
0001
1000
0000
0100
0000
0000
1000
0100
0010
0001
0000
0010
0000
0000
,
0100
0010
0100
0010
0000
0100
0000
0000
1000
0001
1000
0001
0000
0100
0000
0100
,
0000
0001
0010
1000
0000
0100
0000
0000
0010
1000
0001
0100
0000
0010
0000
0000
,
1001
0001
0010
0100
1000
0011
0000
0000
1001
0010
1100
0110
0001
1001
1001
0100
,
0020
0000
0101
0101
1001
0100
1031
0000
,
1100
0000
0000
0010
0101
0000
1010
0000
0101
0000
0000
0000
0110
0000
0000
0000
,
0101
0010
0100
1000
1001
0100
1010
0101
0010
1000
0100
0010
0101
0010
0001
0000
,
2010
0000
0000
3000
0101
0000
0110
0000
0101
0000
0000
0000
1001
0000
0000
0000
,
1001
0100
0010
0101
1010
0100
1001
0100
1001
0100
0010
0100
1010
0100
0001
0000
,
1020
0000
0000
1001
0131
0000
0101
0000
1010
0000
0000
0000
1010
0000
0000
0000
,
0101
1010
0101
0101
0101
1001
1001
0000
,
1010
0000
0000
0100
1001
0000
1100
0000
0011
0000
0000
0000
0011
0000
1000
0000
,
0011
0100
1010
0001
0110
0000
0110
0000
1100
0010
0100
1000
0011
0000
0010
0000
,
1010
0000
0010
0100
1010
0000
1100
0000
1001
0000
0010
0010
1100
0010
0000
0001
,
1120
0000
0101
1001
1100
1000
0131
0000
,
0101
0000
0100
1010
0101
0010
0101
0000
0101
0000
1100
0001
1010
0100
1010
0000
,
0110
0100
0010
1001
0110
0001
1010
0100
1100
0001
0100
0010
0101
0010
0100
1000
,
0110
0000
0000
0000
1001
0000
1100
0000
0101
1000
0000
1000
0101
1000
0010
0100
,
1001
0100
0010
1100
0011
0010
1100
0010
1100
1000
0010
0100
1010
0001
0010
0000
,
1001
0000
0000
1001
0110
0000
1100
0000
0110
0000
0000
0000
1100
0000
0001
0000
,
1100
0110
1001
0011
0101
0010
1010
0000
,
0101
0000
0000
1000
0101
0000
0011
0000
1001
0000
0010
0010
1001
0010
0000
1000
,
0011
0100
0010
0001
1010
0100
0101
1000
0011
1000
0100
0010
0101
0000
1000
0000
,
0101
0010
0001
0010
1100
0000
1100
0010
0101
1000
0100
0010
0101
0000
0010
0000
,
1010
0100
0010
0100
1010
0100
0011
0100
1010
0000
0100
0000
1010
0000
0010
0100
,
1010
0000
0001
0100
1010
0000
1100
0000
1100
0000
0100
0010
1001
0010
0000
0000
,
0101
0010
0100
1000
0101
0010
0101
1000
0110
0001
1000
0000
0110
0000
0101
0000
,
1010
0100
0010
0101
1010
0010
1100
0001
0110
0000
0001
0000
0110
1000
0010
0000
,
1010
0100
1010
0001
1010
0100
0110
0001
1010
0100
1001
0001
0110
0000
1000
0000
,
0121
0000
0000
0101
1130
0000
1100
0000
1001
0100
0010
0100
1001
0010
0000
0000
,
0101
1000
0101
0010
1100
0001
1010
1000
0101
0010
1100
0100
0011
0000
0100
0000
,
1010
0000
0010
1000
0110
0000
1010
0000
0110
0000
0110
1000
0110
1000
0000
0100
,
1020
0000
0000
0100
1001
0000
0101
0000
1031
0000
0110
0000
1001
0000
0100
0000
,
0101
0000
1000
0010
0000
0001
0000
0000
1000
0100
1000
0100
0000
0001
0000
0000
,
1001
0100
0010
0100
1010
0100
1010
0001
0110
1000
0101
0010
0101
0010
0100
1000
,
0011
0000
0000
0000
1001
0000
0110
0000
1001
0010
0000
0010
0101
0010
0000
0100
,
1000
1000
0100
0100
0010
0100
0100
0001
0010
0010
0100
0010
0010
0100
1000
1000
,
0010
0000
0000
0010
1201
0000
1010
0000
1010
0000
0000
0000
1301
0000
0000
0000
,
0101
0101
1010
0101
0101
0010
1010
0001
,
1020
0000
0000
0000
0131
0000
1000
0000
0010
0000
0100
0020
0100
0000
1000
0000
,
1031
0010
0100
1000
1001
0100
1010
0100
1001
0000
0101
0000
1010
0000
0010
0000
,
1010
0100
0010
0001
1010
0100
1010
0100
0011
0000
0010
0000
0101
0000
0010
0000
,
1001
0100
0001
0100
1001
0100
0011
0100
1001
0000
1100
0000
1001
0000
0000
0000
,
1001
0000
1001
0011
1100
0000
0101
0000
,
0101
0010
0100
1010
0101
0000
1001
0100
1001
0000
1010
0000
0101
0000
0010
0000
,
0101
0010
0100
0001
1100
0000
1001
0100
0101
0000
1000
0000
0110
0000
1000
0000
,
0011
0100
1010
0100
1001
0100
1010
0100
1001
0100
1010
0000
1001
0000
0000
0000
,
0102
0000
0000
0023
0000
0000
0230
2300
0000
0000
0010
0010
3200
0000
0001
0000
,
1320
0000
1030
0010
0100
0010
1001
0000
,
0101
0000
0000
0010
0001
0000
0010
0000
1100
0000
0000
0000
1001
0000
0000
0000
,
1001
0010
0100
0010
1001
0100
0010
0001
0101
0010
0100
1000
1100
0100
0010
0001
,
0101
0000
0000
0000
1001
0000
0110
0000
1001
0010
0000
0010
1100
0000
0010
0000
,
1100
0001
0010
0001
1000
0000
0100
0010
0101
1000
0010
1000
0001
0000
0010
0100
,
1001
0010
0100
0000
0100
0000
0010
0000
1001
0000
0010
0000
0110
0000
0010
0000
,
1010
0101
0110
0110
2020
0100
0101
0001
,
3131
0000
0100
0000
0110
0000
0110
0000
1212
0000
1000
1000
1010
0000
1000
0000
,
2313
0000
0101
0110
0101
0010
0101
0000
,
3101
0000
0000
0000
0101
0000
0110
0000
1001
0000
0000
0000
0101
0000
1000
0010
,
0101
0010
0100
1000
0101
0010
0100
1000
0011
0100
0010
1000
0101
0000
0100
1000
,
0101
0000
0000
0000
1100
0000
1010
0000
0101
0010
0000
0010
0101
0000
1000
0000
,
0101
0010
0100
0010
0101
0010
0100
1000
0101
0010
0100
0010
0101
0010
0100
1000
,
0102
0000
1103
0101
0011
0001
1100
0010
,
0201
0010
1301
0010
0101
0100
1001
0010
,
2010
0000
0000
0000
3101
0000
0010
0000
0101
0000
0010
0010
0101
0010
0010
0000
,
0200
0000
1300
0100
1000
0100
0100
0000
,
0020
0000
0001
0100
1031
0100
1001
0000
0101
0010
0100
1000
0101
0010
0000
0000
,
1001
0100
0010
0101
1010
0100
0011
0100
1010
0100
1001
0010
0101
0010
0100
0001
,
1020
0000
1000
0100
1031
0100
1001
0000
0101
0010
0100
1000
0101
0010
0000
0000
,
0101
0010
0100
0010
0101
0010
1100
1000
0101
0010
0110
1000
0011
0001
0010
0100
,
1010
0000
0100
0010
1100
0000
1000
0100
0101
0000
1000
0010
0101
0000
0100
0001
,
1010
0000
1010
0001
1100
0000
0110
0000
0101
0000
0100
1000
0101
0000
0010
0000
,
0101
0000
0100
0001
1010
0000
0101
0000
0101
0000
1000
0100
0011
0000
0100
0000
,
2020
0000
0000
0000
,
0000
0000
0000
0000
,
3030
0000
0000
0000
;
